#TITLE:Why, or Why Not;
#SUBTITLE:- Higurashi no Naku Koro ni Ending;
#ARTIST:Katakiri Rekka;
#TITLETRANSLIT:;
#SUBTITLETRANSLIT:;
#ARTISTTRANSLIT:;
#CREDIT:Asahina-san, Xion Steel for the banner ;
#BANNER:videobanner.avi;
#BACKGROUND:background 1.jpg;
#LYRICSPATH:higurashi.lrc;
#CDTITLE:Asahina-san.png;
#MUSIC:Why or Why Not.mp3;
#OFFSET:0.792;
#SAMPLESTART:46.707;
#SAMPLELENGTH:20.000;
#SELECTABLE:YES;
#BPMS:0.000=135.980,221.750=139.980,222.000=140.980,222.250=95.000,222.500=135.980,240.000=137.980;
#STOPS:;
#BGCHANGES:1.000=Why or Why Not.avi=1.000=1=0=0,
201.500=background 1.jpg=1.000=1=0=0,
99999=-nosongbg-=1.000=0=0=0 // don't automatically add -songbackground-
;
// cache tags:
#FIRSTBEAT:3.000;
#LASTBEAT:256.021;
#SONGFILENAME:songs/Otaku's Dream 3rd Anime Mix/[Asahina-san] Why, or Why Not - Higurashi no Naku Koro ni ED/higurashi.sm;
#HASMUSIC:1;
#HASBANNER:1;
#MUSICLENGTH:115.420;
// end cache tags

//---------------dance-single - ----------------
#NOTES:
     dance-single:
     :
     Hard:
     8:
     0.489,0.550,0.321,0.840,0.052,261.000,37.000,97.000,0.000,9.000:
0000
0000
0000
0020
,
0000
0000
0000
0000
0000
0000
0000
0030
,
1000
0100
0001
0010
0100
0001
1000
0100
,
0010
0100
0010
1000
0100
0002
0000
0000
,
0003
0010
1000
0100
0000
0011
0000
1000
,
0010
0000
0100
1001
0000
1000
0000
0110
,
0000
0200
0000
0001
0300
0010
0000
0000
,
1000
0001
0100
0020
0030
0022
0033
0010
,
0000
0110
0000
0001
0000
2000
0000
0000
,
3010
0100
0002
0010
0003
0010
0100
0001
,
0000
1100
0000
0010
0110
0002
0000
0000
,
0010
2000
0000
3013
0200
0000
0302
0000
,
0020
0000
0033
0001
0020
2000
0030
0100
,
0002
3000
1003
0010
0200
0000
0310
0110
,
0000
1000
0000
0100
0020
2000
0000
0000
,
0031
0010
0200
0000
3302
0000
2003
0000
,
3020
0000
0000
0130
0001
0200
0000
0020
,
0000
1030
0020
0300
0230
0000
1300
1100
,
0000
0110
0001
0010
0100
2000
0000
0000
,
0010
0002
0000
3013
1200
0000
1302
0000
,
2013
0120
0000
3030
0002
0200
0000
0000
,
0000
0303
0010
1000
0020
0000
0032
0020
,
0000
0033
0000
0101
0000
0220
0000
0000
,
0330
0001
1000
0010
0200
0000
0010
0001
,
0010
0001
0310
0000
0011
0101
0000
2020
,
0000
3030
0000
0220
0000
0000
0330
0002
,
0000
0023
0000
2030
0000
3002
0000
0003
,
0100
0010
0000
0100
0001
0000
1000
0000
,
0010
0000
0200
0310
0002
1000
0100
1003
,
0010
0100
0000
0001
1000
0000
0010
0000
,
2200
0000
3300
0000
0020
1000
0130
1000
,
0001
0010
0000
0100
0002
0000
0023
0000
,
0030
0001
0100
0000
0000
0010
0000
1000
,
0001
0000
0100
0010
0000
0100
0001
0000
,
1000
0100
0010
0001
0010
0100
1000
0000
0001
0000
0022
0000
0000
0000
0033
0000
,
0001
0010
0000
0100
0002
0000
0023
0000
,
1030
0001
0000
0100
0020
0000
0000
0030
,
0000
1000
0000
0010
0200
1000
0000
0010
,
2300
0001
3020
1000
0230
0001
0000
0300
,
0001
0020
1000
0130
0002
1000
0003
0010
,
0100
0000
0002
0000
0020
0000
0033
0110
,
0101
0000
0010
1000
0001
0200
0000
0310
,
2000
0000
3002
0000
0213
0000
0000
0300
,
0000
1010
0000
0110
0202
0000
0000
0303
,
1010
0000
0220
0330
0000
0000
1100
0000
0220
0000
0000
0000
0000
0000
0300
0000
,
0030
0101
0000
0010
2000
0000
3000
0001
,
0200
0320
0032
0000
,
0013
0200
0000
0301
2000
0000
3000
0010
,
0200
0000
0302
0000
0023
0000
0000
0030
,
0000
1001
0110
0000
1100
0000
0220
0000
,
0000
0000
0000
0000
0000
0000
0330
0000
0000
0000
0000
0000
1000
0100
0010
0001
0000
0000
0000
0000
0000
0000
0000
0000
,
0000
0000
0000
0000
0000
0010
0000
0000
,
0000
0010
0000
0000
0000
0010
0000
0000
,
0000
0100
0000
0000
0000
0100
0000
0000
,
0000
0010
0000
0000
0000
0010
0000
0000
,
0000
0100
0000
0000
0000
0020
0000
0000
,
0000
0000
0000
0000
0000
0230
0000
0000
,
0000
0000
0000
0000
0000
0000
0000
0000
0000
0000
0000
0002
0300
0000
0000
0000
,
0000
0000
0000
2003
0000
0000
0000
0000
0000
0000
0000
0000
3020
0000
0000
0000
,
0000
0000
0000
0000
0000
0000
0130
0000
0000
0000
0000
0001
0000
0000
0000
0000
,
0000
0000
0000
0000
0000
0000
0010
0000
0000
0000
0000
0000
0100
0000
0000
0000
0000
0010
0000
0000
0000
0000
0100
0000
,
0000
0000
0000
0010
0000
0000
0000
0000
0100
0000
0000
0000
0000
0010
0000
0000
0000
0000
0100
0000
0000
0000
0000
0000
,
0000
0020
0000
0000
0000
0000
0200
0000
,
0000
0000
0330
0000
;

//---------------dance-single - ----------------
#NOTES:
     dance-single:
     :
     Medium:
     6:
     0.334,0.355,0.156,0.303,0.022,217.000,18.000,35.000,0.000,1.000:
0000
0000
0000
0020
,
0000
0000
0000
0000
,
0000
0000
0000
0000
0030
1001
0000
0000
,
0000
0010
0000
0100
0000
0101
0000
0000
,
0010
1000
0001
0100
0000
0010
0000
1000
,
0001
0000
0100
0010
0000
0100
0000
0001
,
0000
1000
0000
0010
0100
0002
0000
0003
,
0010
0100
0001
1000
0000
0200
0000
0000
,
0300
0010
0000
0001
0000
2000
0000
3000
,
0010
0100
0001
0100
0000
0020
0000
0000
,
0000
0000
0000
0000
0030
2000
0000
0000
,
0000
0001
0000
0010
0000
0100
0000
0010
,
0000
0001
0000
3110
0000
0002
0000
0010
,
0000
1000
0000
0010
0000
0100
0000
0013
,
0000
0110
0000
1001
0110
0002
0000
0010
,
0000
0100
0000
0010
0000
1000
0000
0103
,
0000
0110
0000
1001
0110
2000
0000
0001
,
0000
0100
0000
0001
0000
0100
0000
0001
,
0000
0100
0000
3010
0100
0102
0000
0010
,
0000
1000
0000
0010
0000
0100
0000
0010
,
0000
0100
0000
0013
0000
2010
0000
0001
,
0000
0100
0000
0010
0000
0100
0000
0001
,
0000
0010
3000
0110
0002
0010
0000
0010
,
0000
0010
0000
0010
0000
0100
0000
1003
,
0000
1010
0000
0001
0100
0020
0000
0001
,
0000
0001
0000
0031
0000
2000
0000
3002
,
0000
0203
0000
0320
0000
1030
0000
0000
,
0001
0100
0000
0010
1000
0000
0100
0000
,
0001
0000
1000
0000
0020
0000
0000
0030
,
0001
0100
0000
0010
1000
0000
0001
0000
,
0200
0000
0000
0301
0020
0000
0000
0030
,
0001
0100
0000
0010
1000
0000
0100
0000
,
0000
0001
1000
0000
0000
0010
0000
0100
,
0001
0000
1000
0010
0000
0100
0001
0000
,
1000
0010
0000
0000
0100
0110
0000
0000
,
0001
1000
0000
0010
0100
0000
0002
0000
,
0013
0100
0000
0001
2000
0000
0000
3000
,
0000
0110
0000
0001
0020
0000
0000
0030
,
0001
0000
1000
0000
0200
0000
0000
0300
,
0010
0001
0000
0000
0200
0000
0300
0010
,
1000
0000
0001
0000
0200
0000
0300
0010
,
1000
0000
0001
0100
0010
0100
0000
0001
,
1000
0000
0010
0000
0200
0000
0000
0300
,
0000
0001
0000
0010
0200
0000
0000
0300
,
0001
1000
0000
0010
0002
0000
0000
0000
,
0003
0010
0000
0100
0001
0000
0000
1000
,
0010
0000
0100
0000
0002
0000
0000
0003
,
0010
0100
0000
0001
1000
0000
0000
0010
,
0100
0000
0001
0000
2000
0000
0000
3000
,
0000
0001
1000
0000
0011
0000
0220
0000
,
0000
0000
0000
0000
0000
0000
0000
0330
1001
0000
0000
0000
0000
0000
0000
0000
,
0000
0000
0000
0000
0000
0010
0000
0000
,
0000
0000
0000
0000
0000
0010
0000
0000
,
0000
0000
0000
0000
0000
0100
0000
0000
,
0000
0000
0000
0000
0000
0100
0000
0000
,
0000
0010
0000
0000
0000
0200
0000
0000
,
0000
0000
0000
0000
0000
0310
0000
0000
,
0000
0000
0000
0000
0000
0010
0000
0000
,
0000
0100
0000
0010
,
0000
0000
0000
0000
0000
0000
0000
0000
0000
0100
0000
0000
0000
0000
0000
0000
0010
0000
0000
0000
0000
0000
0000
0000
,
0000
0000
0000
0001
0000
0000
1000
0000
0000
0001
0000
1000
,
0000
0000
0000
0001
0000
0000
0000
0000
1000
0000
0000
0000
0000
0000
0001
0000
0000
0000
0000
1000
0000
0000
0000
0000
,
0000
0002
0000
0000
0000
0000
0100
0000
,
0000
0003
0000
0000
0000
0000
0000
0000
;

//---------------dance-single - ----------------
#NOTES:
     dance-single:
     :
     Challenge:
     10:
     0.843,1.000,1.000,1.000,0.290,392.000,164.000,125.000,0.000,0.000:
0000
0000
0000
0020
,
0000
0000
0000
0000
,
0030
0000
0000
0100
1000
0100
1000
0100
0010
0100
0010
0001
0010
1000
0010
1200
0000
0000
0000
0000
0000
1000
0000
0000
,
0000
0000
0000
0000
0000
0300
0022
0000
0000
0033
0000
0000
2200
0000
0000
3300
0000
0000
0220
0000
0000
0000
0000
0000
0000
0000
0000
0330
0000
0000
0022
0000
0000
0000
0000
0000
0000
0000
0000
0000
0000
0000
0033
0000
0000
0000
0000
0000
,
0011
1010
0110
0011
0101
0010
0000
1100
,
0011
0000
0110
0100
0000
0011
1100
1100
,
0000
0110
0000
0011
0101
1020
0030
0110
,
0010
1010
0010
0120
0000
0130
0000
0101
,
0000
1010
0000
0110
1001
0202
0000
0303
,
1010
0000
0000
0000
0000
0000
0010
0000
0000
0000
0000
0000
0100
0000
0000
0000
0000
0000
0012
0000
0000
0000
0000
0000
0100
0000
0000
1000
0000
0000
0010
0000
0000
0000
0000
0003
1100
0000
0000
0000
0000
0000
1100
0000
0000
0000
0000
0000
,
0000
0110
0000
0101
0010
2100
0010
0100
,
0001
0010
0100
0010
0001
3100
0010
0100
,
0010
0110
0000
1001
1001
0102
1000
0100
,
0010
0000
0000
1000
0000
0000
0010
0000
0000
0100
0000
0000
1000
0000
0000
0100
0000
0003
0110
0000
0000
1100
0000
0000
,
0000
0101
0000
1010
1001
2010
0010
0001
,
0010
0000
0100
0000
0010
0000
0001
0000
0010
0000
0100
3000
0011
0000
0110
0000
,
0000
1010
0000
0101
0010
0102
1000
0100
,
1000
0013
0100
0010
0100
0000
1010
0110
,
0000
1100
1010
0101
0011
0012
0010
1000
,
0010
0100
0010
1000
0010
0100
0010
0103
,
0000
2020
3030
1100
1100
0201
0010
1000
,
0001
0010
1000
0010
1300
0000
1010
0011
,
0000
1001
0000
0101
0101
1200
0010
1000
,
0301
0000
0001
0000
0010
0000
1000
0001
0110
0000
0001
0000
0100
0000
0010
0000
,
1000
0010
1100
0000
0010
0000
0100
1000
0110
0000
0001
0000
0100
0000
0001
0000
,
0100
0010
0101
0000
0010
0100
1010
0000
0220
0330
2200
3300
0202
0303
2020
3030
,
2002
3003
0010
0000
1000
0000
0101
0000
0001
0000
2002
3003
0100
0010
0001
0000
,
0110
1000
0210
0000
0310
0100
1001
0000
1002
0100
1003
0000
0210
0301
0010
0000
,
2100
3010
0100
0000
0120
1000
0130
0000
0102
0010
0100
0000
1000
0100
0013
0000
,
1020
0001
0100
0000
1030
0010
1002
0000
0100
0010
0103
0000
1010
0100
1010
0000
,
0202
0000
0000
0303
0220
0000
0330
0000
,
2010
0000
0000
0000
0000
0000
0000
0000
0000
0000
0000
0000
0000
0000
0000
0000
0000
0000
0000
0000
0000
0000
0000
0000
0200
0000
0000
0000
0000
0000
0000
0000
0000
0000
0000
0000
0000
0000
0000
0000
0000
0000
0000
0000
0000
0000
0000
0000
0000
0000
0000
0000
0000
0000
0000
0000
0000
0000
0000
0000
0000
0000
0000
0000
0000
0000
3300
0000
0000
0000
0000
0000
0011
0000
0000
0000
0000
0000
0000
0000
0000
0000
0000
0000
0000
0000
0000
0000
0000
0000
0000
0000
0000
0000
0000
0000
2100
0000
0000
0000
0000
0000
0000
0000
0000
0000
0000
0000
0010
0000
0000
0000
0000
0000
0000
0000
0000
0000
0000
0000
0001
0000
0000
0000
0000
0000
0000
0000
0000
0000
0000
0000
0000
0000
0000
0000
0000
0000
0000
0000
3000
0000
0000
0000
0102
0000
0000
0000
0000
0000
0000
0000
0000
0000
0000
0000
0010
0000
0000
0000
0000
0000
0000
0000
0000
0000
0000
0000
0100
0000
0000
0000
0000
0000
0000
0000
0000
0000
0000
0000
0000
0000
0000
0000
0000
0000
0000
0000
0000
0000
0000
0000
,
1003
0010
1200
0000
1000
0010
1000
0000
0310
0001
0220
0000
0330
0000
0101
0010
,
0101
0000
0000
0000
0000
0000
0000
0000
0000
0000
0000
0000
1010
0000
0000
0100
0000
0000
2020
0000
0000
0000
0000
0000
3030
0000
0000
0000
0000
0000
0001
0000
0000
0000
0000
0000
0010
0000
0000
0000
0000
0000
0000
0000
0000
0000
1000
0000
,
0100
0010
0100
0001
0010
0100
0010
0001
0100
0010
0000
0100
0000
0010
0000
2002
0000
0000
0000
0000
0000
3003
0000
0000
,
0010
0000
0000
0110
0000
0000
0000
0000
0000
0001
0000
0000
0202
0000
0000
0000
0303
0000
2020
0000
0000
0000
3030
0000
,
0101
0000
0000
2200
0000
0000
0000
3300
0000
1001
0000
0000
0220
0000
0000
0000
0000
0000
0000
0000
0000
0330
0000
0000
,
0000
0000
0202
0000
0303
0000
2010
0001
0200
0000
0000
0000
0000
0000
3300
0000
,
0110
0001
0010
0000
0110
1000
0100
0000
2200
0000
0000
0000
0000
0000
3300
0000
,
0110
1000
0202
0000
0000
0000
0303
0000
2020
0000
0000
0000
3030
0000
1100
0001
,
0110
0000
0000
0000
0102
1000
0103
0000
0202
0000
0000
0000
0303
0000
1010
0000
,
2100
0010
3001
0000
0110
0000
0101
0000
1001
0000
2200
0000
3300
0000
1010
0000
,
0220
0330
0202
0303
0220
0000
0000
0330
,
0000
0000
2002
0000
3003
0000
0220
0330
0012
0000
0000
0000
0000
0000
0003
0000
,
0110
0202
0000
0303
2002
0000
0000
3003
,
0000
0011
0000
0110
2200
0000
3300
0110
,
0101
0110
2200
3300
,
0101
2200
3300
1001
0220
0000
0330
0101
,
0220
0000
0000
0000
0000
0330
0000
0000
2200
0000
0000
0000
3300
0000
0000
0000
0220
0000
0000
0000
0000
0000
0000
0000
0000
0000
0000
0000
0330
0000
0000
0000
,
0000
0101
1010
0000
1100
0000
0220
0000
,
0000
0000
0000
0000
0000
0000
0000
0000
0000
0000
0000
0000
0000
0000
0000
0000
0000
0330
0000
0000
0000
0000
0000
0000
0001
0000
0010
0000
0100
0000
2000
0000
0000
0000
0000
0000
0000
0000
0000
0000
0000
0000
0000
0000
0000
0000
0000
0000
,
0000
0000
0002
3003
0000
0120
0000
0030
,
0001
0100
0010
1000
0000
0120
0000
0030
,
0001
0000
0000
0000
0000
0000
0100
0000
0000
0000
0000
0000
0010
0000
0000
0000
0000
0000
0100
0000
0000
0000
0000
0000
0000
0000
0100
0000
0010
0000
0002
0000
0000
0000
0000
0000
0000
0000
0000
0000
0000
0000
0000
0000
0000
0003
0000
0000
,
0010
0100
0020
0000
0000
0000
0000
0000
0000
0030
2001
0000
0100
0000
0010
0000
,
3001
1002
0010
0100
0003
1001
0000
1000
,
0100
0010
0001
0100
0000
0010
0000
0000
,
0100
0001
0010
0100
1000
0120
0000
0000
,
0030
1000
0100
1000
0000
0000
0000
0000
0000
0000
0000
0100
0000
0000
0000
0000
,
0000
0000
0000
0001
0100
0001
0000
0000
0000
0000
0000
0010
0000
0000
0000
0000
,
0000
0000
0000
0000
0000
0000
1000
0000
0000
0000
0000
0000
0100
0000
0000
0000
0000
0010
0000
0000
0000
0000
0001
0000
,
0000
0000
0000
0000
0010
0000
0000
0000
0000
0100
0000
0000
0000
0010
0000
0000
0000
0000
1000
0000
0000
0000
0000
0000
,
1000
0100
0010
0002
0000
0000
0000
0000
0000
0000
0000
0000
0000
0000
0000
0000
0000
0000
0020
0000
0000
0000
0000
0000
,
0000
0000
0000
0000
,
0003
0030
0000
0000
0000
0000
0000
0000
0000
0000
0000
0000
0000
0000
0000
0000
0000
0000
0000
0000
0000
0000
0000
0000
0000
0000
0000
0000
0000
0000
0000
0000
0000
0000
0000
0000
0000
0000
0000
0000
0000
0000
0000
0000
0000
0000
0000
0000
0000
0000
0000
0000
0000
0000
0000
0000
0000
0000
0000
0000
0000
0000
0000
0000
0000
0000
0000
0000
0000
0000
0000
0000
0000
0000
0000
0000
0000
0000
0000
0000
0000
0000
0000
0000
0000
0000
0000
0000
0000
0000
0000
0000
0000
0000
0000
0000
0000
0000
0000
0000
0000
0000
0000
0000
0000
0000
0000
0000
0000
0000
0000
0000
0000
0000
0000
0000
0000
0000
0000
0000
0000
0000
0000
0000
0000
0000
0000
0000
0000
0000
0000
0000
0000
0000
0000
0000
0000
0000
0000
0000
0000
0000
0000
0000
0000
0000
0000
0000
0000
0000
0000
0000
0000
0000
0000
0000
0000
0000
0000
0000
0000
0000
0000
0000
0000
0000
0000
0000
0000
0000
0000
0000
0000
0000
0000
0000
0000
0000
0000
0000
0000
0000
0000
0000
0000
0000
0000
0000
0000
0000
0000
0000
;

//---------------dance-single - ----------------
#NOTES:
     dance-single:
     :
     Easy:
     3:
     0.140,0.197,0.052,0.052,0.000,101.000,6.000,6.000,0.000,0.000:


0000
0000
0000
0020
,
0000
0000
0000
0000
,
0000
0000
0000
0000
0030
1000
0000
0000
,
0000
0100
0000
0010
0000
0002
0000
0000
,
0003
0010
0000
0000
0000
0100
0000
0000
,
0000
1000
0000
0100
0000
0010
0000
0000
,
0000
0001
0000
0000
0000
0100
0000
0000
,
0000
0010
0000
0000
0000
1000
0000
0100
,
0000
0010
0000
0000
0000
0001
0000
0000
,
0000
0100
0000
0000
0000
1000
0000
0010
,
0000
0101
0000
0000
0000
0010
0000
0000
,
0000
1000
0000
0000
0000
0100
0000
0010
,
0000
0001
0000
0000
0000
1000
0000
0000
,
0000
0100
0000
0000
0000
0000
0000
0010
,
0000
0100
0000
0000
0000
0001
0000
0000
,
0000
1000
0000
0000
0000
0000
0000
0010
,
0000
0100
0000
0000
0000
0010
0000
0000
,
0000
0001
0000
0000
0000
0000
0000
0001
,
0000
0100
0000
0010
0000
1000
0000
0000
,
0000
0010
0000
0000
0000
0000
0000
0100
,
0000
0001
0000
0010
0100
0001
0000
0000
,
0000
1000
0000
0000
0000
0000
0000
0100
,
0000
0010
0000
0001
0000
0100
0000
0000
,
0000
0010
0000
0000
0000
0000
0000
1000
,
0000
0100
0000
0000
0000
0010
0000
0000
,
0000
0100
0000
0000
0000
0000
0000
1000
,
0000
0100
0000
0000
0000
0100
0000
0000
,
0000
0010
0000
0000
0000
1000
0000
0000
,
0000
0100
0000
0000
0000
0001
0000
0000
,
0000
0010
0000
0000
0000
0100
0000
0000
,
0000
1000
0000
0000
0000
0100
0000
0000
,
0000
0001
0000
0000
0000
1000
0000
0000
,
0000
0100
0000
0000
0000
1000
0000
0000
,
0000
0100
0000
0000
0000
0010
0000
0000
,
0000
0002
0000
0000
0003
0020
0000
0000
,
0000
0030
0000
0000
0000
0100
0000
0000
,
0000
0000
0000
0000
0000
0001
0000
0000
,
0000
0000
0000
0000
0000
1000
0000
0010
,
0000
0100
0000
0001
0000
0200
0000
0000
,
0000
0310
0000
0000
0000
1000
0000
0000
,
0000
0000
0000
0000
0000
0001
0000
0000
,
0000
0000
0000
0000
0000
0110
0000
0000
,
1100
0000
0000
0110
0000
0101
0000
0000
,
0000
1010
0000
0000
0000
0100
0000
0000
,
0000
0000
0000
0000
0000
0001
0000
0000
,
0000
0000
0000
0000
0000
0010
0000
0000
,
0000
0000
0000
0000
0000
0100
0000
0000
,
0000
0000
0000
0000
0000
0010
0000
0000
,
0000
1000
0000
0000
0000
0001
0000
0000
,
0000
0010
0000
0000
0100
0000
0020
0000
,
0000
0000
0031
0000
;

//---------------dance-single - Copied from----------------
#NOTES:
     dance-single:
     Copied from:
     Beginner:
     1:
     0.105,0.109,0.000,0.000,0.000,85.000,0.000,0.000,0.000,0.000:


0000
0000
0000
0010
,
0000
0000
0000
0000
,
0000
0000
0000
0000
0000
1000
0000
0000
,
0000
0100
0000
0000
0000
0001
0000
0000
,
0000
0010
0000
0000
0000
0100
0000
0000
,
0000
1000
0000
0000
0000
0010
0000
0000
,
0000
0001
0000
0000
0000
0100
0000
0000
,
0000
0010
0000
0000
0000
1000
0000
0000
,
0000
0010
0000
0000
0000
0001
0000
0000
,
0000
0100
0000
0000
0000
1000
0000
0010
,
0000
0000
0000
0000
0000
0010
0000
0000
,
0000
1000
0000
0000
0000
0100
0000
0000
,
0000
0001
0000
0000
0000
1000
0000
0000
,
0000
0100
0000
0000
0000
0000
0000
0010
,
0000
0000
0000
0100
0000
0000
0000
0000
,
0000
1000
0000
0000
0000
0000
0000
0010
,
0000
0000
0000
0000
0000
0010
0000
0000
,
0000
0001
0000
0000
0000
0000
0000
0001
,
0000
0000
0000
0010
0000
0000
0000
0000
,
0000
0010
0000
0000
0000
0000
0000
0100
,
0000
0001
0000
0010
0000
0000
0000
0000
,
0000
1000
0000
0000
0000
0000
0000
0100
,
0000
0000
0000
0001
0000
0100
0000
0000
,
0000
0010
0000
0000
0000
0000
0000
1000
,
0000
0000
0000
0000
0000
0010
0000
0000
,
0000
0100
0000
0000
0000
0000
0000
1000
,
0000
0000
0000
0000
0000
0100
0000
0000
,
0000
0010
0000
0000
0000
1000
0000
0000
,
0000
0100
0000
0000
0000
0001
0000
0000
,
0000
0010
0000
0000
0000
0100
0000
0000
,
0000
1000
0000
0000
0000
0100
0000
0000
,
0000
0001
0000
0000
0000
1000
0000
0000
,
0000
0100
0000
0000
0000
1000
0000
0000
,
0000
0100
0000
0000
0000
0010
0000
0000
,
0000
0001
0000
0000
0000
0010
0000
0000
,
0000
0000
0000
0000
0000
0100
0000
0000
,
0000
0000
0000
0000
0000
0001
0000
0000
,
0000
0000
0000
0000
0000
1000
0000
0000
,
0000
0000
0000
0001
0000
0100
0000
0000
,
0000
0010
0000
0000
0000
1000
0000
0000
,
0000
0000
0000
0000
0000
0001
0000
0000
,
0000
0000
0000
0000
0000
0010
0000
0000
,
1000
0000
0000
0100
0000
0001
0000
0000
,
0000
1000
0000
0000
0000
0100
0000
0000
,
0000
0000
0000
0000
0000
0001
0000
0000
,
0000
0000
0000
0000
0000
0010
0000
0000
,
0000
0000
0000
0000
0000
0100
0000
0000
,
0000
0000
0000
0000
0000
0010
0000
0000
,
0000
1000
0000
0000
0000
0001
0000
0000
,
0000
0010
0000
0000
0100
0000
0010
0000
,
0000
0000
0001
0000
;
